#TITLE:Super Dancer mix;
#SUBTITLE:Dead Master;
#ARTIST:SDO;
#TITLETRANSLIT:;
#SUBTITLETRANSLIT:;
#ARTISTTRANSLIT:;
#CREDIT:;
#BANNER:bn.png;
#BACKGROUND:bg.png;
#LYRICSPATH:;
#CDTITLE:cd.png;
#MUSIC:sdo.mp3;
#OFFSET:-0.572;
#SAMPLESTART:43.384;
#SAMPLELENGTH:12.000;
#SELECTABLE:YES;
#BPMS:0.000=140.148;
#STOPS:144.000=0.060
,144.250=0.080
,144.750=0.060
,145.250=0.060
,145.500=0.060
,146.000=0.060
,146.500=0.060
,146.750=0.060
,147.000=0.060
,147.250=0.060
,148.000=0.060
,148.500=0.060
,149.250=0.060
,150.000=0.060
,150.500=0.060
,150.750=0.060
,151.750=0.060
;
#BGCHANGES:;
// cache tags:
#FIRSTBEAT:1.000;
#LASTBEAT:285.750;
#SONGFILENAME:Songs/Super Dancer Online/SDO-Super Dancer Mix/sdo.sm;
#HASMUSIC:1;
#HASBANNER:1;
#MUSICLENGTH:126.955;
// end cache tags

//---------------dance-single - ----------------
#NOTES:
     dance-single:
     :
     Medium:
     11:
     0.929,0.957,1.000,0.402,1.000,584.000,185.000,51.000,0.000,7.000:
0000
0000
0000
0000
0001
0000
0000
1000
0010
0000
0000
0100
0010
0000
0000
0100
,
0001
0000
0000
1000
0000
0010
0000
0100
0000
0010
0000
0100
0000
0001
0000
0000
,
0000
1000
0000
0010
0000
0000
0100
0010
0000
0000
0100
0000
0001
0000
1000
0000
,
0010
0000
0100
0000
0000
0010
0000
0100
0010
0000
0000
1000
0000
0010
0000
0100
,
0000
0001
0000
0000
0001
0001
0000
0001
0000
0001
0000
0001
0010
0000
0010
0010
,
0000
0000
0010
0001
0000
0001
1000
0001
0000
0010
0010
0000
0010
0000
0010
0000
,
0010
0000
0010
0010
0000
0001
0000
0001
0000
0001
0010
0000
0010
0000
0010
0010
,
0000
0010
0000
0010
0010
0100
0000
0000
1010
0000
0010
0100
0001
0100
0001
0000
,
0010
0000
1001
0000
0100
0010
0100
0001
0000
1000
0010
0100
0010
0100
0001
0000
,
1000
0010
0100
0001
0000
0110
0000
0010
0000
1010
0001
0000
0100
0010
0100
0010
,
0000
0001
0000
1000
0010
0100
0010
0100
0001
0000
0001
0000
1010
0000
0100
0000
,
0001
0100
0011
0000
1010
0000
0000
0000
0101
0000
0000
0000
0110
0000
0000
0000
,
1001
0010
0000
0100
0010
0110
0000
0000
0010
0100
0000
0010
0010
0100
0001
0000
,
1000
0010
0000
0110
0000
0000
0010
0000
0010
0100
0001
0000
1000
0100
0010
0010
,
0000
0020
0000
0000
0000
0000
0000
0000
0000
0000
0000
0000
0000
0000
0030
0000
,
0001
0000
0011
0000
0010
1100
0100
0000
0001
0010
0000
0000
0010
0000
0010
0000
,
0010
0100
0000
0000
0000
0011
1000
0000
0110
0000
0011
0000
0011
0000
0100
1000
,
0100
0010
0000
0000
0101
0000
0000
0000
0110
0000
1001
0010
0000
0100
0010
0000
,
0010
0100
0000
0010
0000
0100
0010
0001
0010
1000
0100
0010
0000
0010
0001
0010
,
0100
1000
0000
0000
0010
0001
0010
0000
0000
1111
0000
0000
0010
0000
0110
0000
,
0010
0000
0000
1000
0001
0000
0010
0000
0100
0000
0010
0000
0001
0000
1000
0010
,
0000
0100
0000
0010
0000
0010
0100
0001
0000
1000
0010
0000
0100
0010
0000
0100
,
0002
0000
0000
0000
0003
0010
0000
0010
0000
0100
1000
0110
0000
0010
0100
0000
,
0011
0000
0000
0100
1100
0010
0000
0010
0002
0010
0000
0010
0103
1000
0000
0020
,
0000
0000
0000
0030
0010
0000
0020
0100
1000
0100
0000
0000
0030
0010
0000
0020
,
0000
0200
0000
0000
0300
0130
1000
0000
0110
0000
0010
0001
0010
0000
0011
0100
,
1000
0200
0000
0000
0300
0010
0010
0000
0002
0020
0000
0000
0000
0133
0000
0100
,
1000
0100
0000
0020
0000
0000
0000
0030
0100
0000
0000
0002
0000
0000
0000
0023
,
0000
0000
0000
0030
0100
0000
0100
1000
0100
0020
0000
0000
0000
0030
0010
0000
,
0110
0000
1200
0010
0000
0000
0310
0000
0010
0000
0002
0010
0000
0103
1000
0100
,
0020
0000
0000
0000
0000
0000
0030
0100
0100
1000
0100
0020
0000
0000
0000
0030
,
0002
0000
0000
0003
0020
0000
0000
0030
0200
0000
0000
0000
0320
0000
0000
0030
,
0001
1000
0010
0100
0000
0101
0000
1010
0000
0101
0101
0000
0101
0000
1010
1010
,
0000
0000
0101
0000
0110
0000
1001
0000
0110
0000
0101
0000
0101
0101
0000
0101
,
0000
1010
0000
1010
0000
0101
0000
0110
1000
0001
0010
0100
0101
0000
0101
0100
,
0001
1010
0000
0000
1001
0000
0110
0000
0110
0000
1001
0000
1001
0000
0010
0000
,
0000
0011
0000
1100
1100
0000
0000
1100
1100
0000
0000
0011
0000
0000
0011
0000
,
0011
0000
1100
0000
1100
0000
0000
0000
0011
0000
0000
0011
0011
0000
0000
0000
,
1100
1100
0000
0000
0101
0000
0101
0000
1010
0000
0110
0000
0000
0101
0000
0000
,
1010
0000
0000
0000
0101
0000
0000
1000
0010
0000
0000
0101
0000
0102
0000
0200
,
0020
0003
0000
0330
1010
0000
0000
0000
1001
0000
0010
0100
0010
0000
0000
0000
,
1011
0000
0000
0000
0111
0000
0000
0000
1001
0010
0000
0010
0110
0000
0000
0000
,
1001
0110
1001
0110
,
1001
0010
0100
0101
0000
0000
1010
0000
1001
0000
0110
0000
1101
0000
0000
0000
,
0110
0110
0000
0000
1001
0000
0000
0000
0110
0000
0000
0000
1001
0000
0000
0000
,
0110
0000
0001
1010
0000
0110
0000
0011
0000
0011
0100
0000
1000
0100
0000
0000
,
0110
0000
0000
0000
1001
0001
0000
0110
0010
0000
0001
1010
0000
0000
0000
0010
,
0011
0100
1000
0000
0110
0001
0010
0000
0100
1000
0110
0000
0010
0000
0000
0000
,
0101
0010
0000
1000
0001
0110
0000
0000
1001
0000
0110
0000
1001
0000
0110
0000
,
1001
0110
1001
0110
0101
0110
1001
0110
,
1001
0000
0110
0000
1001
0000
0010
0100
0101
0000
0101
0000
1010
0000
1001
0000
,
0110
0001
1000
0000
1010
0100
0101
1010
0000
0000
0101
0100
0010
0000
0000
0000
,
1001
0000
0000
0110
0000
0110
0000
0000
1001
0000
0110
0000
0101
0000
0000
0000
,
1010
0010
1000
0002
0100
0000
0003
0000
0110
0110
0000
0000
0002
0000
0000
0003
,
0010
0010
0100
1000
0100
0000
0000
0010
0010
0000
0011
0200
0000
0000
0300
0010
,
0010
0000
1100
0000
0110
0010
0000
0001
0010
0100
0000
1000
0100
0010
0000
0000
,
0002
0000
0010
0103
1000
0110
0000
0010
0000
0010
0012
0000
0103
1000
0110
0000
,
0000
1101
0000
0000
0000
0110
0000
0000
0000
1001
0010
0100
0000
1010
0100
0001
,
0010
0000
0000
0110
0000
0010
0001
0010
2100
0000
0100
3010
0010
0000
0012
0000
,
0200
0003
0000
0000
0320
0000
0000
0030
1000
0100
0010
0000
0010
0000
0020
0000
,
0000
0000
0030
0000
0001
0001
0110
1000
0100
0010
0010
0000
0001
0010
0100
0000
,
0010
0000
0000
0010
1100
0000
0000
0101
0000
0000
0000
0010
0110
1000
0011
0100
,
0000
0010
0000
0010
0000
0100
0010
0010
0100
0001
1010
0100
0010
0000
0010
0002
,
0000
0000
0000
0000
0023
0000
0000
0000
0230
0000
0000
1300
0100
0000
0000
0020
,
0000
0000
0000
0000
0000
0130
0000
0100
0020
0000
0000
0000
0000
0030
1000
0010
,
0010
0100
0000
0000
0001
0100
0010
0100
1001
0000
0110
0000
0101
0000
0101
0000
,
0002
0000
0000
0000
0003
0010
0000
0020
0200
0000
0000
0000
0330
0000
1010
1010
,
0000
0000
0000
0101
0000
0000
0000
0110
0000
0000
0000
1001
0000
0000
0000
0110
,
0010
0100
0000
0000
0001
0100
0001
0200
0020
0000
0000
0000
0330
0000
1010
2020
,
0000
0000
0000
3030
0000
0101
0000
0101
0010
0100
1000
0000
0110
0010
0000
0022
,
0000
0000
0000
0033
0000
0010
0010
0000
2100
0000
0100
3000
0000
0010
0010
0000
,
0100
0000
0000
0020
0000
0000
0000
1030
0000
0000
0000
0000
0000
0000
0000
0000
;
